注册 登录
爸妈网 返回首页

老王的个人空间 http://ebama.net/?1020 [收藏] [复制] [分享] [RSS]

日志

自2013年9月26起,老王Rip的BBC儿童电视节目编码改为MP4

热度 92已有 5975 次阅读2013-9-27 15:16 |系统分类:其他

由于:
“Since Wednesday 26 September the way you can download TV programmes has changed. We've replaced BBC iPlayer Desktop and Windows Media downloads with a new service called BBC iPlayer Downloads.”

自2013年9月26起,老王Rip的BBC儿童电视节目编码改为MP4。



以这个剧集第52集为例,视频信息如下:
【自采】BBC-CBeebies-What\'s The Big Idea-Series 1 学龄前哲学 52集全-英语类资源-爸妈网 -
http://www.ebama.net/forum.php?mod=viewthread&tid=153764


Complete name  : \BBC Cbeebies\Whats the Big Idea\Whats_the_Big_Idea_S01E52_Brave.mp4
Format  : MPEG-4
Format profile : Base Media
Codec ID: isom
File size : 29.8 MiB
Duration : 5mn 9s
Overall bit rate mode : Constant
Overall bit rate: 805 Kbps
Movie name : 52. Brave
Album : What's the Big Idea?
Album/Performer : BBC TV
Track name/Position : 52
Grouping : Learning,Pre-School,Children's,Factual,Animation
Performer : CBeebies
Composer : BBC iPlayer
Genre : Learning
Recorded date: 2013
Tagged date : UTC 2013-10-04 01:57:00
Writing application : Rip By WangShitao
Copyright : 2013 British Broadcasting Corporation, all rights reserved
Cover : Yes
Comment  : Sometimes in life you have to be brave: like when Hugo goes to the doctor.
stik : 10
﹍yr : Pre-school animation exploring ideas and promoting thinking skills, encouraging viewers to make up their own minds. Sometimes in life you have to be brave: like when Hugo goes to the doctor, and especially when he fights a dragon! /  / EPISODE / http://www.bbc.co.uk/iplayer/episode/b03c8nxn/Whats_the_Big_Idea_Brave/ /  / SERIES / http://www.bbc.co.uk/programmes/b03c8nxn.html
desc  : Sometimes in life you have to be brave: like when Hugo goes to the doctor.
tvsh  : What's the Big Idea?
tven  : s00e52
tves  : 52
tvnn : CBeebies
tvsn  : 0
rati : (Binary)

Video
ID   : 1
Format  : AVC
Format/Info  : Advanced Video Codec
Format profile : Main@L3.0
Format settings, CABAC : Yes
Format settings, ReFrames  : 2 frames
Codec ID  : avc1
Codec ID/Info   : Advanced Video Coding
Duration   : 5mn 9s
Bit rate mode  : Constant
Bit rate  : 704 Kbps
Width  : 640 pixels
Height  : 360 pixels
Display aspect ratio  : 16:9
Frame rate mode  : Constant
Frame rate : 25.000 fps
Color space  : YUV
Chroma subsampling  : 4:2:0
Bit depth  : 8 bits
Scan type  : Progressive
Bits/(Pixel*Frame) : 0.122
Stream size   : 26.0 MiB (87%)

Audio
ID  : 2
Format  : AAC
Format/Info  : Advanced Audio Codec
Format profile  : LC
Codec ID  : 40
Duration  : 5mn 9s
Bit rate mode  : Constant
Bit rate   : 93.4 Kbps
Channel(s) : 2 channels
Channel positions  : Front: L R
Sampling rate  : 48.0 KHz
Compression mode  : Lossy
Stream size  : 3.45 MiB (12%)




路过
69

鲜花
3

握手

雷人

刚表态过的朋友 (72 人)

发表评论 评论 (29 个评论)

回复 5班庞成元妈 2013-9-29 08:45
这意味什么,还能继续下载吗?我们可是受益多多的啊!老王,再次感谢!
回复 kai_shen_00 2013-10-10 23:30
Whether should we only setup BBC iPLAYER to watch TV programmes?
回复 liuliz 2013-10-15 16:40
谢谢。老王继续深挖BBC啊。
回复 hpatsh 2013-11-26 18:03
谢谢老王,我们很受益呀
回复 等待七月的Key 2013-12-9 14:42
赞@
回复 醒掌天下权 2014-1-1 14:37
感谢老王,献上鲜花
回复 lexiaoyaoyou 2014-6-25 13:54
谢谢分享!
回复 rachelfish 2014-9-1 09:01
谢谢分享
回复 小鱼儿豆豆 2014-10-4 11:53
谢谢无私分享!!
回复 奇迹0803 2014-11-21 15:14
感谢老王,这是我泡爸妈网说的最多的话!
回复 阅宝贝 2015-1-23 11:32
  
回复 可爱猪猪 2015-6-15 03:18
今生有幸找到老王,由衷感谢
回复 琴琴_1967 2015-7-2 09:14
无意中看到老王的空间,像发现宝藏一样,感谢分享!
回复 dfl13390 2015-8-6 07:41
非常感谢分享~
回复 AIWAAIJIA 2016-1-26 20:42
请问该怎么下载啊?
回复 Iron 2016-8-7 09:39
非常感谢分享
回复 蟾宝 2016-8-10 17:21
谢谢。 要学的还很多。 跟不上了都!
回复 红尘炼心 2016-8-31 16:13
谢谢
回复 小晴阳 2016-10-25 09:09
学习上有幸遇到老王,很开心
回复 igetfree 2016-12-23 09:01
收藏,多看多学,跟娃一起进步,感谢楼主
12下一页

facelist

您需要登录后才可以评论 登录 | 注册

返回顶部